Black Mirror Temporada 3[Microhd.720][Webdl][Cast][Multi][01/01]

Ir abajo

pajaro Black Mirror Temporada 3[Microhd.720][Webdl][Cast][Multi][01/01]

Mensaje por Invitado el Vie 24 Jun 2016, 12:25



Black Mirror Temporada 3[Microhd.720][Webdl][Cast][Multi][01/01] Zae2EnF

Black Mirror Temporada 3[Microhd.720][Webdl][Cast][Multi][01/01] FJnoJLJBlack Mirror Temporada 3[Microhd.720][Webdl][Cast][Multi][01/01] Cf4WEti


Ttitulo:Black mirror(White Bear)
Año-2014
País-Reino Unido  
Director-Charlie Brooker (Creator), Bryn Higgins    
Reparto-Daniel Rigby, Chloe Pirrie, Jason Flemyng, Tobias Menzies, Christina Chong, James Lance  
Género-Drama. Ciencia ficción | Sátira. Política. Televisión. [Serie] Black Mirror. Mediometraje
Duracion cap:1h30min.


Black Mirror Temporada 3[Microhd.720][Webdl][Cast][Multi][01/01] FJnoJLJBlack Mirror Temporada 3[Microhd.720][Webdl][Cast][Multi][01/01] CK4xWWB

El episodio contiene referencias a las películas de terror inglesas de los años setenta y a las historias de fantasmas navideñas. Según promete Charlie Brooker, será uno de los episodios más impactantes de toda la saga. Se compone de tres historias de fantasmas, provocadoras e inquietantes, pero no exentas de humor que se entrelazarán de manera magistral para acabar en un final climático.

Black Mirror Temporada 3[Microhd.720][Webdl][Cast][Multi][01/01] FJnoJLJBlack Mirror Temporada 3[Microhd.720][Webdl][Cast][Multi][01/01] Ab242wj


Spoiler:

General
Unique ID                                : 195573116052072488594794027383620061599 (0x93220315DA09B0CC97C28DA8FDA3499F)
Complete name                            : BlackMirror.3x01.Micro.720.Webdl.geradeus.mkv
Format                                   : Matroska
Format version                           : Version 4 / Version 2
File size                                : 867 MiB
Duration                                 : 1h 14mn
Overall bit rate                         : 1 630 Kbps
Movie name                               : geradeus
Encoded date                             : UTC 2014-12-30 23:36:58
Writing application                      : mkvmerge v6.9.1 ('Blue Panther') 32bit built on Apr 18 2014 18:15:44
Writing library                          : libebml v1.3.0 + libmatroska v1.4.1

Video
ID                                       : 1
Format                                   : AVC
Format/Info                              : Advanced Video Codec
Format profile                           : Main@L3.1
Format settings, CABAC                   : Yes
Format settings, ReFrames                : 4 frames
Codec ID                                 : V_MPEG4/ISO/AVC
Duration                                 : 1h 14mn
Bit rate                                 : 1 500 Kbps
Width                                    : 1 280 pixels
Height                                   : 720 pixels
Display aspect ratio                     : 16:9
Frame rate mode                          : Constant
Frame rate                               : 25.000 fps
Color space                              : YUV
Chroma subsampling                       : 4:2:0
Bit depth                                : 8 bits
Scan type                                : Progressive
Bits/(Pixel*Frame)                       : 0.065
Stream size                              : 781 MiB (90%)
Writing library                          : x264 core 142 r2479 dd79a61
Encoding settings                        : cabac=1 / ref=1 / deblock=1:0:0 / analyse=0x1:0x111 / me=hex / subme=2 / psy=1 / psy_rd=1.00:0.00 / mixed_ref=0 / me_range=16 / chroma_me=1 / trellis=0 / 8x8dct=0 / cqm=0 / deadzone=21,11 / fast_pskip=1 / chroma_qp_offset=0 / threads=3 / lookahead_threads=1 / sliced_threads=0 / nr=0 / decimate=1 / interlaced=0 / bluray_compat=0 / constrained_intra=0 / bframes=3 / b_pyramid=2 / b_adapt=1 / b_bias=0 / direct=1 / weightb=1 / open_gop=0 / weightp=1 / keyint=250 / keyint_min=25 / scenecut=40 / intra_refresh=0 / rc_lookahead=10 / rc=2pass / mbtree=1 / bitrate=1500 / ratetol=1.0 / qcomp=0.60 / qpmin=0 / qpmax=69 / qpstep=4 / cplxblur=20.0 / qblur=0.5 / vbv_maxrate=14000 / vbv_bufsize=14000 / nal_hrd=none / filler=0 / ip_ratio=1.40 / aq=1:1.00
Language                                 : Spanish
Default                                  : Yes
Forced                                   : No
Color primaries                          : BT.709
Transfer characteristics                 : BT.709
Matrix coefficients                      : BT.709

Audio
ID                                       : 2
Format                                   : MPEG Audio
Format version                           : Version 1
Format profile                           : Layer 3
Mode                                     : Joint stereo
Mode extension                           : MS Stereo
Codec ID                                 : A_MPEG/L3
Codec ID/Hint                            : MP3
Duration                                 : 1h 14mn
Bit rate mode                            : Constant
Bit rate                                 : 128 Kbps
Channel(s)                               : 2 channels
Sampling rate                            : 48.0 KHz
Compression mode                         : Lossy
Delay relative to video                  : -80ms
Stream size                              : 68.1 MiB (8%)
Writing library                          : LAME3.98.2
Language                                 : Spanish
Default                                  : Yes
Forced                                   : No                                


Sincro:galpena
Ripeo:geradeus
Fuente:WEBDL 720p
Tamaño:860mb Aprox.
Video:AVC/High@L3.1
Bitrate video :1500Ks/2pass
Resolucion:1280x720
Audio1:Cast/Mp3/192/kbps
Formato Compresión:winrar
Archs recupearacion:1 por capitulo

Black Mirror Temporada 3[Microhd.720][Webdl][Cast][Multi][01/01] FJnoJLJBlack Mirror Temporada 3[Microhd.720][Webdl][Cast][Multi][01/01] HoheUxN

Spoiler:

Black Mirror Temporada 3[Microhd.720][Webdl][Cast][Multi][01/01] 0NEAChK
Black Mirror Temporada 3[Microhd.720][Webdl][Cast][Multi][01/01] XX7VkU5
Black Mirror Temporada 3[Microhd.720][Webdl][Cast][Multi][01/01] OxjAr1r

Black Mirror Temporada 3[Microhd.720][Webdl][Cast][Multi][01/01] VlBbeVxBlack Mirror Temporada 3[Microhd.720][Webdl][Cast][Multi][01/01] Hw2jhBi
Black Mirror Temporada 3[Microhd.720][Webdl][Cast][Multi][01/01] 072130a1ef86253bba98047378f42d17



Black Mirror Temporada 3[Microhd.720][Webdl][Cast][Multi][01/01] 143e4hy


Invitado
Invitado


Volver arriba Ir abajo

pajaro Re: Black Mirror Temporada 3[Microhd.720][Webdl][Cast][Multi][01/01]

Mensaje por arbon el Jue 22 Sep 2016, 13:11

Muchas gracias

arbon
Merodeando

Mensajes : 3
Fecha de inscripción : 20/09/2016

Volver arriba Ir abajo

pajaro Re: Black Mirror Temporada 3[Microhd.720][Webdl][Cast][Multi][01/01]

Mensaje por kieffer el Jue 03 Nov 2016, 16:01

arbon escribió:Muchas gracias

kieffer
Merodeando

Mensajes : 1
Fecha de inscripción : 03/11/2016

Volver arriba Ir abajo

pajaro Re: Black Mirror Temporada 3[Microhd.720][Webdl][Cast][Multi][01/01]

Mensaje por riddick077 el Vie 16 Jun 2017, 17:21

Very Happy

riddick077
Merodeando

Mensajes : 5
Fecha de inscripción : 16/06/2017

Volver arriba Ir abajo

pajaro Re: Black Mirror Temporada 3[Microhd.720][Webdl][Cast][Multi][01/01]

Mensaje por triwin el Dom 18 Mar 2018, 02:01

Gracias

triwin
Merodeando

Mensajes : 2
Fecha de inscripción : 18/03/2018

Volver arriba Ir abajo

pajaro Re: Black Mirror Temporada 3[Microhd.720][Webdl][Cast][Multi][01/01]

Mensaje por Acel el Mar 10 Abr 2018, 14:25

gracias!!

Acel
Merodeando

Mensajes : 3
Fecha de inscripción : 10/04/2018

Volver arriba Ir abajo

pajaro Re: Black Mirror Temporada 3[Microhd.720][Webdl][Cast][Multi][01/01]

Mensaje por xcorpion32 el Vie 31 Mayo 2019, 05:19

Gracias
xcorpion32
xcorpion32
Despertando
Despertando

Mensajes : 88
Fecha de inscripción : 26/01/2018
Edad : 39
Localización : Donostia

Volver arriba Ir abajo

pajaro Re: Black Mirror Temporada 3[Microhd.720][Webdl][Cast][Multi][01/01]

Mensaje por Contenido patrocinado


Contenido patrocinado


Volver arriba Ir abajo

Volver arriba


 
Permisos de este foro:
No puedes responder a temas en este foro.